#TITLE:Fortune;
#SUBTITLE:;
#ARTIST:玉置成实;
#TITLETRANSLIT:;
#SUBTITLETRANSLIT:;
#ARTISTTRANSLIT:;
#CREDIT:;
#BANNER:Fortune_logo.jpg;
#BACKGROUND:Fortune_bg.jpg;
#LYRICSPATH:;
#CDTITLE:Lan.png;
#MUSIC:Fortune.mp3;
#OFFSET:-0.020;
#SAMPLESTART:100.000;
#SAMPLELENGTH:12.000;
#SELECTABLE:YES;
#BPMS:0.000=137.000;
#STOPS:;
#BGCHANGES:;
// cache tags:
#FIRSTBEAT:4.000;
#LASTBEAT:268.000;
#SONGFILENAME:Songs/lan sky/Fortune/Fortune.sm;
#HASMUSIC:1;
#HASBANNER:1;
#MUSICLENGTH:120.728;
// end cache tags

//---------------dance-single - sky----------------
#NOTES:
     dance-single:
     sky:
     Hard:
     8:
     0.643,0.805,1.000,0.447,0.141,339.000,127.000,54.000,0.000,84.000:

0000
0000
0000
0000
,
2020
0000
0000
0000
,
3232
0000
0000
0000
,
0303
0000
1010
0101
,
0220
0000
0000
0000
0000
1000
0001
1000
,
0331
1000
0010
0100
,
2121
0000
0000
3131
,
1221
0000
0000
1000
,
2332
0000
0000
0110
3003
0000
0011
0000
,
1100
0000
0000
0000
0110
0000
0001
0100
1002
0100
0010
1000
0010
1000
0100
0010
,
2123
0100
0101
0001
,
0101
3031
1100
0010
,
2112
0010
0110
0100
,
3113
0000
0001
0000
1100
0000
0010
0001
,
2011
0010
0101
3001
,
0112
0010
1100
0103
,
2121
0001
0101
0100
,
3232
0000
0000
0000
1010
0000
0000
0000
0010
0000
0000
0010
1000
0000
0010
0000
,
2313
0001
0110
0001
,
3101
0000
0010
0000
1001
0100
0010
0000
,
0110
0001
1010
0100
,
1001
0000
0100
0000
0011
0100
0010
1000
,
0101
0010
1100
0001
,
0110
0010
1000
0000
0101
1000
0010
0000
,
1100
0001
0101
0010
,
1001
0010
0100
1000
0011
0100
1000
0010
,
0112
0000
1000
0000
0110
0000
0100
0010
,
1013
0001
0100
0010
1001
0100
0010
0001
,
1010
0001
0100
1000
0011
0100
1000
0010
,
0101
1000
0010
0001
1100
0010
0001
0010
,
1001
0010
0100
1000
0011
0100
1000
0001
,
0110
1000
0001
0100
1001
0010
0100
0001
,
1010
0100
0001
0100
1001
0100
0010
1000
,
0101
0000
0010
0000
1100
0000
0011
0000
0102
1000
0010
0100
1000
0010
1000
0100
,
0213
1000
1001
0010
,
1321
0001
1100
0001
,
1132
0100
0110
1000
,
1213
0000
0010
0000
1001
1000
0010
0001
,
0321
1000
0101
1000
,
2131
0010
0110
0001
,
3121
0100
1001
0001
,
2231
0000
0000
0000
0000
0001
0000
0000
0010
0001
0000
0000
0010
0000
0000
0000
,
3302
0000
0000
0000
0000
0000
0000
0000
0000
1000
0010
0000
0000
0100
0000
0000
,
2023
0000
0000
0000
0000
0000
0000
0000
0001
0000
0000
0100
0000
0000
0000
0000
,
3232
0000
0000
0000
1000
0010
1000
0010
,
1303
0011
0000
1221
0000
0000
0000
0000
,
2331
0000
0000
0000
0000
0110
3000
0121
,
0000
0000
2132
0000
,
3223
0000
0000
0000
0000
0000
0000
1001
,
1331
0000
0011
0000
1100
0000
1120
0001
1000
0001
0100
0001
0100
1000
0100
0001
,
2030
0101
0000
0010
0000
0011
0000
0100
,
3000
0011
0100
1000
0010
0101
1000
0010
,
0001
1100
0001
0010
1000
0101
0010
0001
,
0000
1010
0000
0100
0000
1001
0100
0010
,
0000
1100
0000
0001
0000
1010
0000
0100
,
0000
1001
0000
0010
0000
0110
0000
0001
,
0000
1010
0000
0100
0000
1001
0000
0011
,
0110
0000
1100
0000
0102
0010
1000
0100
0100
0010
1000
0010
0100
1000
0113
0000
,
0000
0010
0000
1001
0000
0100
0000
0011
,
0000
1000
0000
0110
0000
0001
0000
1010
,
0000
0100
0000
0011
0000
1000
0000
0101
,
0000
0010
0000
1001
0000
0100
0010
1001
,
0000
0100
0000
1010
0000
0001
0000
1100
,
0000
0001
0000
0110
0000
1000
0000
0011
,
0000
0000
1000
0000
0000
0000
0101
0000
0000
0000
0010
0000
1000
0000
2100
0010
,
0001
0010
0100
0010
0001
0100
0010
0100
0001
0010
0100
0010
0001
0100
0010
0100
,
3022
0000
0000
0000
,
0033
0000
0000
0000
;
